» » Voudouris & Kahne - Street Player / There's A Secret Goin' On

Voudouris & Kahne - Street Player / There's A Secret Goin' On album flac

  • Performer: Voudouris & Kahne
  • Album: Street Player / There's A Secret Goin' On
  • FLAC: 1163 mb | MP3: 1100 mb
  • Released: 2000
  • Style: Pop Rock
  • Rating: 4.3/5
  • Votes: 905
  • Format: ASF AA MOD AIFF AC3 AU RA
Voudouris & Kahne - Street Player / There's A Secret Goin' On album flac

Tracklist

Street Player
1 Street Player
2 Wonder Of Wonders
3 It Will Happen With Us
4 Were You Alone Last Night
5 Monterey
6 Our Song
7 Flamingo Sky
8 Ladies In Mercedes
9 Are You Willing?
10 Endings
There's A Secret Goin' On
11 There's A Secret Goin' On
12 Lying To Me You
13 Take Your Music To The People
14 Good Friend Of Mine
15 Run Eddie Run
16 I Only Wanted To Know Your Name
17 Time Is Love
18 Sidney
19 Beautiful Love Between Beautiful People
20 Rock Me Baby
21 I'll Come Ridin

Companies, etc.

  • Distributed By – Vivid Sound Corporation
  • Manufactured By – Toshiba EMI Ltd
  • Mastered At – A&M Studios
  • Recorded At – Devonshire Studios
  • Recorded At – Wally Heider Studios

Credits

  • Acoustic Guitar, Electric Guitar, Written-By – Roger Voudouris
  • Alto Saxophone – Mike Butera
  • Arranged By [Strings & Horns], Conductor – Jimmie Haskell (tracks: 1-10)
  • Arranged By, Piano, Electric Piano [Fender Rhodes], Synthesizer, Written-By – David Kahne
  • Bass – Chuck Domanico (tracks: 1-10), Emory Gordy, Jr. (tracks: 11-21)
  • Clavinet – William Smith
  • Drums – James Gadson (tracks: 1-10), Ron Tutt (tracks: 11-21)
  • Engineer – Ken Hopkins (tracks: 1-10), Ron Malo (tracks: 1-10)
  • Percussion – Bobbye Hall (tracks: 1-10)
  • Producer – Michael Stewart* (tracks: 1-10), Rick Jarrard (tracks: 11-21)
  • Vibraphone, Marimba, Percussion – Victor Feldman (tracks: 11-21)

Voudouris ( Guitars ) & Kahne ( Keyboards ) would record one more album.

Voudouris & Kahne.

Слушать песню . oudouris – онлайн или скачать mp3 в хорошем качестве 320 kbps на телефон (андроид, айфон) вы можете на сайте YoSound.

Voudouris & Kahne 1975 - There's A Secret Goin' On 05 - Run Eddie Ru. p3 09 - Beautiful Love Between Beautiful People. 03 - Take Your Music To The People. 04 - Good Friend Of Mine. 01 - There's A Secret Goin' O. p3. 02 - Lying To Me Yo. 1976 - Street Player.

In the beginning of his career he released his material together with David Kahne under the name: Voudouris, Kahne, and in 1975 their first album There’s A Secret Goin’ On was released and followed by the album Street Player in 1976. In 1978, Roger Voudouris started as a solo artist under Warner Bros label and released the album Roger Voudouris. In 1979 Roger Voudouris his second solo album Radio Dream were released, and from this album the song Get Used To It gave him his first Billboard Top 30 hits. Musicians on the Roger Voudouris album: Roger Voudouris, Michael Omartian, Dwight Martenia, Peter Pfiefer and others.

Author: Roger Voudouris. Format: flac, wma, mp3 archive. Roger Voudouris - Radio Dream MP3 version. Paula Cole Band - I Believe In Love (Dance Mixes). Voudouris & Kahne - Street Player, There's A Secret Goin' On. Debby Boone - Debby Boone. Nick Heyward - You're My World.

Street Player - Street Player, Wonder Of Wonders, It Will Happen With Us and 10 more tracks from this album here for free. More albums by this artist. From: Voudouris & Kahne. Count: 10. Views: 0. Street Player tracks.

There's A Secret Goin' On. Voudouris.

There's a Riot Goin' On is the fifth studio album by American funk and psychedelic soul band Sly and the Family Stone. It was recorded from 1970 to 1971 at Record Plant Studios in Sausalito, California and released later that year on November 20 by Epic Records. The album's recording was dominated by band frontman Sly Stone during a period of drug use and intra-group tension

LoboThommy
foobar2000 1.3.17 / Dynamic Range Meter 1.1.1log date: 2019-01-05 17:36:39--------------------------------------------------------------------------------Analyzed: Voudouris & Kahne / Street Player / There's A Secret Goin' On [JP 2000 CD]--------------------------------------------------------------------------------DR Peak RMS Duration Track--------------------------------------------------------------------------------DR10 -0.60 dB -12.93 dB 3:06 01-Street PlayerDR11 -0.22 dB -15.20 dB 3:30 02-Wonder Of WondersDR11 -0.45 dB -14.57 dB 3:26 03-It Happen With UsDR12 -0.80 dB -18.08 dB 4:33 04-Were You Alone Last NightDR12 -0.47 dB -15.24 dB 4:36 05-MontereyDR10 -1.72 dB -14.23 dB 3:42 06-Our SongDR10 -1.29 dB -14.66 dB 4:45 07-Flamingo SkyDR12 -0.01 dB -14.64 dB 3:05 08-Ladies In MercedesDR10 -0.06 dB -12.52 dB 3:35 09-Are You Willing?DR16 -3.77 dB -22.71 dB 5:04 10-EndingsDR12 -0.27 dB -16.49 dB 3:19 11-There's A Secret Goin' OnDR11 -0.01 dB -13.89 dB 3:17 12-Lying To Me YouDR12 -0.01 dB -14.71 dB 3:26 13-Take Your Music To The PeopleDR12 -0.02 dB -14.56 dB 3:20 14-Good Friend Of MineDR12 -0.01 dB -15.62 dB 5:05 15-Run Eddie RunDR13 -0.05 dB -15.46 dB 3:50 16-I Only Wanted To Know Your NameDR13 -0.01 dB -15.58 dB 2:49 17-Time Is LoveDR12 -0.04 dB -14.81 dB 2:51 18-SidneyDR12 -0.03 dB -15.93 dB 4:12 19-Beautiful Love Between Beautiful PeopleDR13 -0.01 dB -15.79 dB 3:31 20-Rock Me BabyDR12 0.00 dB -15.86 dB 3:56 21-I'll Come Ridin'--------------------------------------------------------------------------------Number of tracks: 21Official DR value: DR12Samplerate: 44100 HzChannels: 2Bits per sample: 16Bitrate: 841 kbpsCodec: ALAC================================================================================
Related to Voudouris & Kahne - Street Player / There's A Secret Goin' On: